#TITLE:Slayer;
#SUBTITLE:- Raining Blood;
#ARTIST:Unknown artist;
#TITLETRANSLIT:;
#SUBTITLETRANSLIT:;
#ARTISTTRANSLIT:;
#CREDIT:;
#BANNER:;
#BACKGROUND:;
#LYRICSPATH:;
#CDTITLE:;
#MUSIC:Slayer - Raining Blood.mp3;
#OFFSET:0.000;
#SAMPLESTART:102.120;
#SAMPLELENGTH:12.000;
#SELECTABLE:YES;
#BPMS:0.000=1200.002,180.000=800.001,188.000=199.740,200.000=200.002,272.000=299.996,276.000=177.497,292.000=176.097,308.000=175.297,316.000=171.997,324.000=170.996,371.000=141.196,372.000=426.754,400.000=434.394,480.000=431.574,484.000=217.146,548.000=185.646,588.000=183.996,612.000=177.796,628.000=182.196,644.000=87.546,660.000=88.996,680.000=88.556,684.000=174.996,716.000=232.696,732.000=312.356,734.000=380.005,824.000=379.995,922.000=2212.892,1195.000=2208.472,1196.000=2198.072,1197.000=2188.471,1198.000=2178.070,1199.000=2148.469,1200.000=2107.666,1201.000=2105.266,1202.000=2044.462,1203.000=2021.261,1204.000=2014.860,1205.000=2012.460,1206.000=2010.060,1207.000=2009.260,1208.000=2008.460,1209.000=2007.660,1210.000=2006.860,1211.000=2006.060,1212.000=2005.260,1213.000=2004.460,1214.000=2003.660,1215.000=2002.860,1216.000=2002.060,1217.000=2001.260,1218.000=2000.459,1219.000=1999.659,1220.000=1998.859,1221.000=1998.059,1222.000=1997.259,1223.000=1996.459,1224.000=1995.659,1225.000=1994.859,1226.000=1994.059,1227.000=1993.259,1228.000=1992.459,1229.000=1991.659,1230.000=1990.859,1231.000=1990.059,1232.000=1989.259,1233.000=1988.459,1234.000=1987.659,1235.000=1986.859,1236.000=1986.059,1237.000=1985.259,1238.000=1984.458,1239.000=1983.658,1240.000=1982.858,1241.000=1982.058,1242.000=1981.258,1243.000=1980.458,1244.000=1979.658,1245.000=1978.858,1246.000=1978.058,1247.000=1977.258,1248.000=1976.458,1249.000=1975.658,1250.000=1974.858,1251.000=1974.058,1252.000=1973.258,1253.000=1972.458,1254.000=1971.658,1255.000=1970.858,1256.000=1970.058,1257.000=1969.258,1258.000=1968.458,1259.000=1967.657,1260.000=1966.857,1261.000=1966.057,1262.000=1965.257,1263.000=1964.457,1264.000=1963.657,1265.000=1950.856,1265.063=1948.456,1265.125=1947.656,1265.188=1946.856,1265.250=1946.056,1265.313=1945.256,1265.375=1944.456,1265.438=1943.656,1265.500=1942.856,1265.563=1942.056,1265.625=1941.256,1265.688=1940.456,1265.750=1939.656,1265.813=1938.856,1265.875=1938.056,1265.938=1937.256,1266.000=1936.456,1266.063=1935.656,1266.125=1934.855,1266.188=1934.055,1266.250=1933.255,1266.313=1932.455,1266.375=1931.655,1266.438=1930.855,1266.500=1930.055,1266.563=1929.255,1266.625=1928.455,1266.688=1927.655,1266.750=1926.855,1266.813=1926.055,1266.875=1925.255,1266.938=1924.455,1267.000=1923.655,1267.063=1922.855,1267.125=1922.055,1267.188=1921.255,1267.250=1920.455,1267.313=1919.655,1267.375=1918.854,1267.438=1918.054,1267.500=1917.254,1267.563=1916.454,1267.625=1915.654,1267.688=1914.854,1267.750=1914.054,1267.813=1913.254,1267.875=1912.454,1267.938=1911.654,1268.000=1910.854,1268.063=1910.054,1268.125=1909.254,1268.188=1908.454,1268.250=1907.654,1268.313=1906.854,1268.375=1906.054,1268.438=1905.254,1268.500=1904.454,1268.563=1903.654,1268.625=1902.854,1268.688=1902.053,1268.750=1901.253,1268.813=1900.453,1268.875=1899.653,1268.938=1898.853,1269.000=1898.053,1269.063=1897.253,1269.125=1896.453,1269.188=1895.653,1269.250=1894.853,1269.313=1894.053,1269.375=1893.253,1269.438=1892.453,1269.500=1891.653,1269.563=1890.853,1269.625=1890.053,1269.688=1889.253,1269.750=1888.453,1269.813=1887.653,1269.875=1886.853,1269.938=1886.052,1270.000=1885.252,1270.063=1884.452,1270.125=1883.652,1270.188=1882.852,1270.250=1882.052,1270.313=1881.252,1270.375=1880.452,1270.438=1879.652,1270.500=1878.852,1270.563=1878.052,1270.625=1877.252,1270.688=1876.452,1270.750=1875.652,1270.813=1874.852,1270.875=1874.052,1270.938=1873.252,1271.000=1872.452,1271.063=1871.652,1271.125=1870.852,1271.188=1870.052,1271.250=1869.251,1271.313=1868.451,1271.375=1867.651,1271.438=1866.851,1271.500=1866.051,1271.563=1865.251,1271.625=1864.451,1271.688=1863.651,1271.750=1862.851,1271.813=1862.051,1271.875=1861.251,1271.938=1860.451,1272.000=1859.651,1272.063=1858.851,1272.125=1858.051,1272.188=1857.251,1272.250=1856.451,1272.313=1855.651,1272.375=1854.851,1272.438=1854.051,1272.500=1853.250,1272.563=1852.450,1272.625=1851.650,1272.688=1850.850,1272.750=1850.050,1272.813=1849.250,1272.875=1848.450,1272.938=1847.650,1273.000=1846.850,1273.063=1846.050,1273.125=1845.250,1273.188=1844.450,1273.250=1843.650,1273.313=1842.850,1273.375=1842.050,1273.438=1841.250,1273.500=1840.450,1273.563=1839.650,1273.625=1838.850,1273.688=1838.050,1273.750=1837.250,1273.813=1836.449,1273.875=1835.649,1273.938=1834.849,1274.000=1834.049,1274.063=1833.249,1274.125=1832.449,1274.188=1831.649,1274.250=1830.849,1274.313=1830.049,1274.375=1829.249,1274.438=1828.449,1274.500=1827.649,1274.563=1826.849,1274.625=1826.049,1274.688=1825.249,1274.750=1824.449,1274.813=1823.649,1274.875=1822.849,1274.938=1822.049,1275.000=1821.249,1275.063=1820.448,1275.125=1819.648,1275.188=1818.848,1275.250=1818.048,1275.313=1817.248,1275.375=1816.448,1275.438=1815.648,1275.500=1814.848,1275.563=1814.048,1275.625=1813.248,1275.688=1812.448,1275.750=1811.648,1275.813=1810.848,1275.875=1810.048,1275.938=1809.248,1276.000=1808.448,1276.063=1807.648,1276.125=1806.848,1276.188=1806.048,1276.250=1805.248,1276.313=1804.448,1276.375=1803.647,1276.438=1802.847,1276.500=1802.047,1276.563=1801.247,1276.625=1800.447,1276.667=1799.647,1276.750=1798.847,1276.833=1798.047,1276.917=1797.247,1277.000=1796.447,1277.083=1795.647,1277.167=1794.847,1277.250=1794.047,1277.333=1793.247,1277.417=1792.447,1277.500=1790.847,1277.625=1790.047,1277.750=1789.247,1277.875=1788.447,1278.000=1787.646,1278.125=1786.846,1278.250=1786.046,1278.375=1785.246,1278.500=1784.446,1278.625=1783.646,1278.750=1782.846,1278.875=1782.046,1279.000=1781.246,1279.125=1780.446,1279.250=1779.646,1279.375=1778.846,1279.500=1778.046,1279.625=1777.246,1279.750=1776.446,1279.875=1775.646,1280.000=1774.846,1280.125=1774.046,1280.167=1773.246,1280.333=1772.446,1280.500=1771.646,1280.667=1770.845,1280.833=1770.045,1281.000=1769.245,1281.250=1768.445,1281.500=1767.645,1281.750=1766.845,1282.000=1766.045,1282.250=1765.245,1282.500=1764.445,1282.750=1763.645,1283.000=1762.845,1283.250=1762.045,1283.500=1761.245,1283.750=1760.445,1284.000=1759.645,1284.250=1758.845,1284.500=1758.045,1284.667=1757.245,1285.000=1756.445,1285.333=1755.645,1285.667=1754.844,1286.000=1754.044,1286.333=1753.244,1286.667=1752.444,1287.000=1751.644,1287.500=1750.844,1288.000=1750.044,1288.500=1749.244,1289.000=1748.444,1289.500=1747.644,1290.000=1746.844,1290.500=1746.044,1291.000=1745.244,1292.000=1744.444,1293.000=1743.644,1294.000=1742.844,1295.000=1742.044,1296.000=1741.244,1297.000=1740.444,1298.000=1739.644,1299.000=1738.844,1300.000=1736.443,1301.000=1733.243,1302.000=1728.443,1302.500=1000.002;
#STOPS:;
#BGCHANGES:;
// cache tags:
#FIRSTBEAT:0.000;
#LASTBEAT:1302.500;
#SONGFILENAME:Songs/nhac/Slayer - Raining Blood/Slayer - Raining Blood.sm;
#HASMUSIC:1;
#HASBANNER:0;
#MUSICLENGTH:256.496;
// end cache tags

//---------------dance-single - ----------------
#NOTES:
     dance-single:
     :
     Challenge:
     1000000:
     1.000,1.000,1.000,0.448,1.000,2597.000,1504.000,115.000,0.000,1112.000:
2000
0000
0000
0000
,
0000
0000
0000
0000
,
0000
0000
0000
0000
,
0000
0000
0000
0000
,
0000
0000
0000
0000
,
0000
0000
0000
0000
,
0000
0000
0000
0000
,
0000
0000
0000
0000
,
0000
0000
0000
0000
,
0000
0000
0000
0000
,
0000
0000
0000
0000
,
0000
0000
0000
0000
,
0000
0000
0000
0000
,
0000
0000
0000
0000
,
0000
0000
0000
0000
,
0000
0000
0000
0000
,
0000
0000
0000
0000
,
0000
0000
0000
0000
,
0000
0000
0000
0000
,
0000
0000
0000
0000
,
0000
0000
0000
0000
,
0000
0000
0000
0000
,
0000
0000
0000
0000
,
0000
0000
0000
0000
,
0000
0000
0000
0000
,
0000
0000
0000
0000
,
0000
0000
0000
0000
,
0000
0000
0000
0000
,
0000
0000
0000
0000
,
0000
0000
0000
0000
,
0000
0000
0000
0000
,
0000
0000
0000
0000
,
0000
0000
0000
0000
,
0000
0000
0000
0000
,
0000
0000
0000
0000
,
0000
0000
0000
0000
,
0000
0000
0000
0000
,
0000
0000
0000
0000
,
0000
0000
0000
0000
,
0000
0000
0000
0000
,
0000
0000
0000
0000
,
0000
0000
0000
0000
,
0000
0000
0000
0000
,
0000
0000
0000
0000
,
0000
0000
0000
0000
,
0000
0000
0000
0000
,
0000
0000
0000
0000
,
0000
0000
0000
0000
0000
0000
0000
0000
0000
0000
0000
0000
0000
0000
0000
0000
0000
0000
0000
0000
0000
0000
0002
0000
0000
0000
0000
0000
0000
0000
0000
0000
3000
0000
0000
0000
0000
0000
0000
0000
0000
0000
0000
0200
0003
0000
0000
0000
0000
0000
0000
0000
0000
0000
0000
0000
0000
0000
0000
0000
0000
0000
0000
0000
,
0000
0000
0000
0000
0000
0000
0000
0000
0000
0020
0000
0300
0000
0000
0000
0000
0000
0000
0000
0000
0000
0000
0000
0000
0000
0000
0000
0000
0000
0000
0000
0000
0000
0000
0000
0000
0000
0000
0000
0000
0000
0000
0000
0000
0000
0000
0000
0000
0000
0000
0000
0000
0000
0000
0000
0000
0000
0000
0000
0000
0000
0000
0000
0000
,
0000
0000
0000
0000
0000
0030
0000
0000
0000
0000
0000
0000
0000
0000
0000
0000
,
0000
0000
0000
0000
0000
0000
0000
0000
0000
0000
0000
0000
0000
0000
0000
0000
0000
0000
0000
0000
0000
0000
0000
0000
0000
0000
0000
0000
0000
0000
0000
0000
0000
0000
0000
2000
0000
0000
0000
0000
0000
0000
0000
0000
0000
0000
0000
0000
0000
0000
0000
0000
0000
0000
0000
0000
0000
0000
0000
0000
0000
0000
0000
0000
,
0000
0000
0000
0200
3000
0000
0000
0000
0000
0000
0000
0000
0000
0000
0000
0000
0000
0000
0000
0000
0000
0000
0000
0000
0000
0000
0000
0000
0000
0000
0000
0000
0000
0000
0000
0000
0002
0300
0000
0000
0000
0000
0000
0000
0000
0000
0000
0000
0000
0000
0000
0000
0000
0000
0000
0000
0000
0000
0000
0000
0000
0000
0000
0000
,
0000
0000
0000
0000
0000
0000
0000
0000
0000
0000
0000
0003
0000
0000
0000
0000
0000
0000
0000
0000
0000
0000
0000
0000
0000
0000
0000
0000
0000
0000
0020
0000
,
0000
0000
0000
0000
,
0000
0000
0000
0000
0000
0000
0000
0000
0000
0000
0000
0000
0000
0030
0000
0000
0000
0000
0000
0000
0000
0000
0000
0000
0000
0000
0000
0000
0000
0000
0000
0000
0000
0000
0000
0000
0000
0000
0000
0000
0200
0000
0000
0000
0000
0000
0000
0000
0000
0000
0000
0000
0000
0000
0000
0000
0000
0000
0000
0000
0000
0000
0000
0000
,
0000
0000
0000
0000
0000
0000
0000
0000
0000
0000
0000
0000
0000
0000
0000
0000
0000
0000
0000
0000
0000
0000
0000
0000
0000
0000
0000
0000
0000
0000
0000
0000
0000
0000
0000
0000
0000
0000
0000
0000
0000
0000
0000
0000
0000
0000
0000
0000
0000
0000
0000
0000
0000
0000
0000
0000
0000
0000
0000
0000
0000
2000
0300
0000
,
0000
0000
0000
0000
,
0000
0000
0000
0000
0000
0000
0000
0000
0000
0000
0000
0000
0000
0002
0000
3000
0000
0000
0000
0000
0000
0000
0000
0000
0000
0000
0000
0000
0000
0000
0000
0000
0000
0000
0000
0000
0000
0000
0000
0000
0000
0000
0000
0000
0000
0000
0000
0000
0000
0000
0000
0000
0000
0000
0000
0000
0000
0000
0000
0000
0000
0000
0000
0000
,
0000
0000
0000
0000
,
0000
0000
0000
0000
,
0000
0000
0000
0000
0000
0000
0000
0000
0000
0000
0000
0000
0000
0000
0000
0000
0000
0000
0000
0000
0000
0000
0000
0000
0000
0000
0000
0000
0000
0000
0000
0000
0000
0000
0000
0000
0000
0000
0000
0000
0000
0000
0000
0000
0000
0200
0003
0000
0000
0000
0000
0000
0000
0000
0000
0000
0000
0000
0000
0000
0000
0000
0000
0000
,
0000
0000
0000
0000
0000
0000
0000
0000
0000
0000
0000
0000
0000
0000
0000
0000
0000
0000
0000
0000
0000
0000
0000
0000
0000
0000
0000
0000
0000
0000
1000
2300
0000
0000
0000
0000
0000
0000
0000
0000
0000
0000
0000
0000
0000
0000
0000
0000
0000
0000
0000
0000
0000
0000
0000
0000
0000
0000
0000
0000
0000
0000
0000
0000
,
0002
3000
0000
0000
0000
0000
0000
0000
0000
0000
0000
0000
0000
0000
0000
0000
0000
0000
0000
0000
0000
0000
0000
0000
0000
0000
0000
0000
0000
0000
0000
0000
0000
0000
0000
0000
0000
0000
0000
0000
0000
0000
0000
0000
0000
0000
0000
0000
0000
0000
0000
0000
0000
0000
0000
0000
0000
0000
0000
0200
0003
0000
0000
0000
,
0000
0000
0000
0000
0000
0000
0000
0000
0000
0000
0000
0000
0000
0000
0000
0000
0000
0000
0000
0000
0000
0000
0000
0000
0000
0000
0000
0000
0000
0000
0000
0000
0000
0000
0000
0000
0000
0000
0000
0000
0000
0000
0000
0000
0000
0000
0000
0000
0000
0000
0000
0000
0020
0300
0000
0000
0000
0000
0000
0000
0000
0000
0000
0000
,
0000
0000
0000
0000
0000
0000
0000
0000
0000
0000
0000
0000
2000
0030
0000
0000
0000
0000
0000
0000
0000
0000
0000
0000
0000
0000
0000
0000
0000
0200
3000
0000
,
0000
0000
0000
0000
0000
0000
0000
0000
0000
0000
0000
0000
0000
0000
0000
0000
0000
0000
0000
0000
0000
0000
0000
0000
0000
0002
0000
0000
0300
0000
0000
0000
0000
0000
0000
0000
0000
0000
0000
0000
0000
0000
0000
0000
0000
0000
0000
0000
0000
0000
0200
0000
0003
0000
0000
0000
0000
0000
0000
0000
0000
0000
0000
0000
,
0000
0000
0000
0000
,
0000
0000
0000
0000
,
0000
0000
0000
0000
,
1300
0100
1000
0100
0001
0010
0001
0000
,
1000
0010
1000
0000
0001
0010
0002
0000
,
1003
0100
1000
0100
0001
0010
0001
0000
,
1000
0010
1000
0000
0001
0010
0002
0000
,
1003
0100
1000
0100
0001
0010
0001
0000
,
1000
0010
1000
0000
0001
0010
0002
0000
,
1003
0100
1000
0100
0001
0010
0001
0000
,
1000
0010
1000
0000
0001
0010
0002
0000
,
1003
0100
1000
0100
1000
0100
1000
0100
0001
0100
0001
0100
0001
0100
0001
0100
,
0010
0100
0010
0100
0010
0100
0010
0100
1000
0001
1000
0001
1000
0001
1000
0001
,
0100
0010
0100
0010
0100
0010
0100
0010
1000
0001
1000
0001
1000
0001
1000
0001
,
0100
0100
1000
0001
0010
1000
0001
1000
,
1000
0100
1000
0100
1000
0100
1000
0100
0001
0100
0001
0100
0001
0100
0001
0100
,
0010
0100
0010
0100
0010
0100
0010
0100
1000
0001
1000
0001
1000
0001
1000
0001
,
0100
0010
0100
0010
0100
0010
0100
0010
1000
0001
1000
0001
1000
0001
1000
0001
,
0100
0100
1000
0001
0010
1000
0001
1000
,
1000
0100
1000
0100
1000
0100
1000
0100
0001
0100
0001
0100
0001
0100
0001
0100
,
0010
0100
0010
0100
0010
0100
0010
0100
1000
0001
1000
0001
1000
0001
1000
0001
,
0100
0010
0100
0010
0100
0010
0100
0010
1000
0001
1000
0001
1000
0001
1000
0001
,
0100
0100
1000
0001
0010
1000
0001
1000
,
1000
0100
1000
0100
1000
0100
1000
0100
0001
0100
0001
0100
0001
0100
0001
0100
,
0010
0100
0010
0100
0010
0100
0010
0100
1000
0001
1000
0001
1000
0001
1000
0001
,
0100
0010
0100
0010
0100
0010
0100
0010
1000
0001
1000
0001
1000
0001
1000
0001
,
0100
0100
1000
0001
0010
1000
0001
1000
,
1100
0100
1001
0010
1100
0010
0101
0010
,
1100
0010
0101
1000
0101
0010
1001
0100
,
0011
0001
1100
0010
1001
0100
1010
0100
,
1100
0100
1001
0010
1100
0010
0101
0010
,
1100
0010
0101
1000
0101
0010
1001
0100
,
0011
0001
1100
0010
1001
0100
1010
0100
,
1100
0100
1001
0010
1100
0010
0101
0010
,
1100
0010
0101
1000
0101
0010
1001
0100
,
0011
0001
1100
0010
1001
0100
1010
0100
,
1100
0100
1001
0010
1100
0010
0101
0010
,
1100
0010
0101
1000
0101
0010
1001
0100
,
0011
0001
1100
0010
1001
0100
1010
0100
,
1100
0100
1001
0010
1100
0010
0101
0010
,
1100
0010
0101
1000
0101
0010
1001
0100
,
0011
0001
1100
0010
1001
0100
1010
0100
,
1100
0100
1001
0010
1100
0010
0101
0010
,
1100
0010
0101
1000
0101
0010
1001
0100
,
0011
0000
0000
0000
0000
0000
0000
0000
0001
0000
0000
0000
0000
0000
0000
0000
1100
0000
0000
0000
0000
0000
0000
0000
0010
0000
0000
0000
0000
0000
0000
0000
1001
0000
0000
0000
0000
0000
0000
0000
0100
0000
0000
0000
0000
0000
0000
0000
1010
0000
0000
0000
0000
0000
0000
0000
0100
0000
0000
0000
0000
0000
0000
0001
,
0000
0000
0000
0000
0000
0000
0000
1000
0000
0000
0000
0000
0000
0000
0000
0001
0000
0000
0000
0000
0000
0000
0000
1000
0000
0000
0000
0000
0000
0000
0000
1100
0000
0000
0000
0000
0000
0000
0000
0100
0000
0000
0000
0000
0000
0000
0000
1001
0000
0000
0000
0000
0000
0000
0000
0010
0000
0000
0000
0000
0000
0000
0000
1100
,
0000
0000
0000
0000
0000
0000
0000
0010
0000
0000
0000
0000
0000
0000
0000
0101
0000
0000
0000
0000
0000
0000
0000
0010
0000
0000
0000
0000
0000
0000
0000
1100
0000
0000
0000
0000
0000
0000
0000
0010
0000
0000
0000
0000
0000
0000
0000
0101
0000
0000
0000
0000
0000
0000
0000
1000
0000
0000
0000
0000
0000
0000
0000
0101
,
0000
0000
0000
0000
0000
0000
0000
0010
0000
0000
0000
0000
0000
0000
0000
1001
0000
0000
0000
0000
0000
0000
0000
0100
0000
0000
0000
0000
0000
0000
0000
0011
0000
0000
0000
0000
0000
0000
0000
0001
0000
0000
0000
0000
0000
0000
0000
1100
0000
0000
0000
0000
0000
0000
0000
0010
0000
0000
0000
0000
0000
0000
0000
1001
,
0000
0000
0000
0000
0000
0000
0000
0100
0000
0000
0000
0000
0000
0000
0000
1010
0000
0000
0000
0000
0000
0000
0000
0100
0000
0000
0000
0000
0000
0000
0000
1100
0000
0000
0000
0000
0000
0000
0000
0100
0000
0000
0000
0000
0000
0000
0000
1001
0000
0000
0000
0000
0000
0000
0000
0010
0000
0000
0000
0000
0000
0000
0000
1100
,
0000
0000
0000
0000
0000
0000
0000
0010
0000
0000
0000
0000
0000
0000
0000
0101
0000
0000
0000
0000
0000
0000
0000
0010
0000
0000
0000
0000
0000
0000
0000
1100
0000
0000
0000
0000
0000
0000
0000
0010
0000
0000
0000
0000
0000
0000
0000
0101
0000
0000
0000
0000
0000
0000
0000
1000
0000
0000
0000
0000
0000
0000
0000
0101
,
0000
0000
0000
0000
0000
0000
0000
0010
0000
0000
0000
0000
0000
0000
0000
1001
0000
0000
0000
0000
0000
0000
0000
0100
0000
0000
0000
0000
0000
0000
0000
0011
0000
0000
0000
0000
0000
0000
0000
0001
0000
0000
0000
0000
0000
0000
0000
1100
0000
0000
0000
0000
0000
0000
0000
0010
0000
0000
0000
0000
0000
0000
0000
1001
,
0000
0000
0000
0000
0000
0000
0000
0100
0000
0000
0000
0000
0000
0000
0000
1010
0000
0000
0000
0000
0000
0000
0000
0100
0000
0000
0000
0000
0000
0000
0000
1100
0000
0000
0000
0000
0000
0000
0000
0100
0000
0000
0000
0000
0000
0000
0000
1001
0000
0000
0000
0000
0000
0000
0000
0010
0000
0000
0000
0000
0000
0000
0000
1100
,
0000
0000
0000
0000
0000
0000
0000
0010
0000
0000
0000
0000
0000
0000
0000
0101
0000
0000
0000
0000
0000
0000
0000
0010
0000
0000
0000
0000
0000
0000
0000
1100
0000
0000
0000
0000
0000
0000
0000
0010
0000
0000
0000
0000
0000
0000
0000
0101
0000
0000
0000
0000
0000
0000
0000
1000
0000
0000
0000
0000
0000
0000
0000
0101
,
0000
0000
0000
0000
0000
0000
0000
0010
0000
0000
0000
0000
0000
0000
0000
1001
0000
0000
0000
0000
0000
0000
0000
0100
0000
0000
0000
0000
0000
0000
0000
0011
0000
0000
0000
0000
0000
0000
0000
0001
0000
0000
0000
0000
0000
0000
0000
1100
0000
0000
0000
0000
0000
0000
0000
0010
0000
0000
0000
0000
0000
0000
0000
1001
,
0000
0000
0000
0000
0000
0000
0000
0100
0000
0000
0000
0000
0000
0000
0000
1010
0000
0000
0000
0000
0000
0000
0000
0100
0000
0000
0000
0000
0000
0000
0000
1100
0000
0000
0000
0000
0000
0000
0000
0100
0000
0000
0000
0000
0000
0000
0000
1001
0000
0000
0000
0000
0000
0000
0000
0010
0000
0000
0000
0000
0000
0000
0000
0000
,
1100
0000
1000
0100
1000
0100
1000
0000
0110
0000
0011
0000
2002
0000
0000
3003
,
0011
0000
0001
0010
0001
0010
0001
0000
1000
0000
0101
0000
0101
0000
1010
0000
,
1100
0000
1000
0100
1000
0100
1000
0000
0110
0000
0011
0000
2002
0000
0000
3003
,
0011
0000
0001
0010
0001
0010
0001
0000
1000
0000
0101
0000
0101
0000
1010
0000
,
1100
0000
1000
0100
1000
0100
1000
0000
0110
0000
0011
0000
2002
0000
0000
3003
,
0011
0000
0001
0010
0001
0010
0001
0000
1000
0000
0101
0000
0101
0000
1010
0000
,
1100
0000
1000
0100
1000
0100
1000
0000
0110
0000
0011
0000
2002
0000
0000
3003
,
0011
0000
0001
0010
0001
0010
0001
0000
1000
0000
0101
0000
0101
0000
1010
0000
,
1100
0000
1000
0100
1000
0100
1000
0000
0110
0000
0011
0000
2002
0000
0000
3003
,
0011
0000
0001
0010
0001
0010
0001
0000
1000
0000
0101
0000
0101
0000
1010
0000
,
1100
0000
1000
0100
1000
0100
1000
0000
0110
0000
0011
0000
2002
0000
0000
3003
,
0011
0000
0001
0010
0001
0010
0001
0000
1000
0000
0101
0000
0101
0000
1010
0000
,
1100
0000
1000
0100
1000
0100
1000
0000
0110
0000
0011
0000
2002
0000
0000
3003
,
0011
0000
0001
0010
0001
0010
0001
0000
1000
0000
0101
0000
0101
0000
1010
0000
,
1100
0000
1000
0100
1000
0100
1000
0000
0110
0000
0011
0000
2002
0000
0000
3003
,
0011
0000
0001
0010
0001
0010
0001
0000
1000
0000
0101
0000
0101
0000
1010
0000
,
1100
0000
1100
0000
1100
0000
1100
0000
0010
1000
0100
0000
0002
0000
0000
0000
,
1103
0000
0000
0000
0000
0000
0000
0000
1100
0000
0000
0000
0000
0000
0000
0000
1100
0000
0000
0000
0000
0000
0000
0000
1100
0000
0000
0000
0000
0000
0000
0000
0002
0000
0000
0000
0000
0000
0000
0000
0020
0000
0000
0000
0000
0000
0000
0000
2000
0000
0000
0000
0000
0000
0000
0000
0000
0000
0000
0000
0000
0000
0000
3033
,
1100
0011
0101
1010
0110
1001
0101
1010
,
0110
0110
1100
0110
0220
0000
1331
0000
,
1100
0000
1100
0000
1100
0000
1100
0000
0010
1000
0100
0000
0002
0000
0000
0000
,
1103
0000
0000
0000
0000
0000
0000
0000
1100
0000
0000
0000
0000
0000
0000
0000
1100
0000
0000
0000
0000
0000
0000
0000
1100
0000
0000
0000
0000
0000
0000
0000
0002
0000
0000
0000
0000
0000
0000
0000
0020
0000
0000
0000
0000
0000
0000
0000
2000
0000
0000
0000
0000
0000
0000
0000
0000
0000
0000
0000
0000
0000
0000
3033
,
1100
0011
0101
1010
0110
1001
0101
1010
,
0110
0110
1100
0110
0220
0000
1331
0000
,
1100
0000
1100
0000
1100
0000
1100
0000
0010
1000
0100
0000
0002
0000
0000
0000
,
1103
0000
0000
0000
0000
0000
0000
0000
1100
0000
0000
0000
0000
0000
0000
0000
1100
0000
0000
0000
0000
0000
0000
0000
1100
0000
0000
0000
0000
0000
0000
0000
0002
0000
0000
0000
0000
0000
0000
0000
0020
0000
0000
0000
0000
0000
0000
0000
2000
0000
0000
0000
0000
0000
0000
0000
0000
0000
0000
0000
0000
0000
0000
3033
,
1100
0011
0101
1010
0110
1001
0101
1010
,
0110
0110
1100
0110
0220
0000
1331
0000
,
1100
0000
1100
0000
1100
0000
1100
0000
0010
1000
0100
0000
0002
0000
0000
0000
,
1103
0000
0000
0000
0000
0000
0000
0000
1100
0000
0000
0000
0000
0000
0000
0000
1100
0000
0000
0000
0000
0000
0000
0000
1100
0000
0000
0000
0000
0000
0000
0000
0002
0000
0000
0000
0000
0000
0000
0000
0020
0000
0000
0000
0000
0000
0000
0000
2000
0000
0000
0000
0000
0000
0000
0000
0000
0000
0000
0000
0000
0000
0000
3033
,
1100
0011
0101
1010
0110
1001
0101
1010
,
0110
0110
1100
0110
0220
0000
1331
0000
,
1000
0100
1000
0100
0001
0010
0001
0000
,
1000
0010
1000
0000
0001
0010
0002
0000
,
1003
0100
1000
0100
0001
0010
0001
0000
,
1000
0010
1000
0000
0001
0010
0002
0000
,
1003
0100
1000
0100
0001
0010
0001
0000
,
1000
0010
1000
0000
0001
0010
0002
0000
,
1003
0100
1000
0100
0001
0010
0001
0000
,
1000
0010
1000
0000
0001
0010
0002
0000
,
2023
3131
0000
0000
0220
1331
0000
0000
2200
3311
0000
0000
0202
1313
0000
0000
,
0220
1331
0000
0000
2200
3311
0000
0000
0202
1313
0000
0000
0220
1331
0000
0000
,
0202
1313
0000
0000
2200
3311
0000
0000
2020
3131
0000
0000
0220
1331
0000
0000
,
2200
3311
0000
0000
0202
1313
0000
0000
0220
1331
0000
0000
2200
3311
0000
0000
,
1100
1100
0100
0010
0101
0101
0100
0010
1100
1100
0100
0010
0101
0101
0100
0010
,
1100
1100
0100
0010
0101
0101
0100
0010
1100
1100
0100
0010
0101
0101
0100
0010
,
1100
1100
0100
0010
0101
0101
0100
0010
1100
1100
0100
0010
0101
0101
0100
0010
,
1100
1100
0100
0010
0101
0101
0100
0010
1100
1100
0100
0010
0101
0101
0100
0010
,
1100
1100
0100
0010
0101
0101
0100
0010
1100
1100
0100
0010
0101
0101
0100
0010
,
1100
1100
0100
0010
0101
0101
0100
0010
1100
1100
0100
0010
0101
0101
0100
0010
,
1100
1100
0100
0010
0101
0101
0100
0010
,
1100
1100
0100
0010
0101
0101
0010
0100
,
1100
1100
0100
0010
0101
0101
0100
0010
,
1100
1100
0100
0010
0101
0101
0010
0100
,
1100
1100
0100
0010
0101
0101
0100
0010
,
1100
1100
0100
0010
0101
0101
0010
0100
,
1100
1100
0100
0010
0101
0101
0100
0010
,
1100
1100
0100
0010
0101
0101
0010
0100
,
1100
1000
0001
1000
0001
1000
0001
1000
0001
1000
0001
1000
0001
1000
0001
1000
,
0001
1000
0001
1000
0001
1000
0001
1000
0001
1000
0001
1000
0001
1000
0001
1000
,
0001
1000
0001
1000
0001
1000
0001
1000
0001
1000
0001
1000
0001
1000
0001
1000
,
0001
1000
0001
1000
0001
1000
0001
1000
0001
1000
0001
1000
0001
1000
0001
1000
,
0001
1000
0001
1000
0001
1000
0001
1000
0000
0020
0000
0000
0000
0000
0000
0000
,
0000
0000
0000
0000
0000
0000
0000
0030
0000
1000
0000
0000
0000
0001
0000
0000
0000
0000
0000
0000
0100
0000
0000
0000
0000
0000
0000
0000
0010
0000
0000
0000
,
0000
0000
0000
0000
0000
0000
1000
0000
0000
0000
0001
0000
0000
1000
0000
0001
0000
0000
0100
0000
0010
0000
0000
0000
0000
0000
0000
0001
0000
0100
0010
0000
,
0000
0000
0000
0001
0000
0100
0000
0010
0000
0000
0000
0000
0000
0000
0000
0000
0000
0000
0000
0000
0000
0000
0000
0000
0000
0000
0000
0000
0000
0001
0000
0000
,
0000
0000
0000
0000
0010
0000
0000
0000
0000
0000
0000
0000
0000
0000
0000
0000
0000
0100
0000
0001
0000
1000
0000
0000
0000
0100
0000
0010
0001
0000
1000
0000
,
0000
0000
0110
0000
0000
0000
1000
0000
0000
0000
0000
0010
0000
0100
1000
0000
0001
0000
1000
0000
0100
0010
0000
0000
0000
0000
1001
0000
0000
0000
0010
0100
,
0000
0000
0000
0001
1000
0000
0000
0010
0000
0100
0000
1000
0000
0001
0000
0000
0000
0010
0000
0000
0100
1000
0000
0001
0000
0000
0000
0010
0100
0000
0000
1000
,
0001
0000
0000
0000
0000
0010
0100
0000
1000
0000
0000
0001
0000
0000
0000
0000
1110
0000
0000
0000
0000
0001
1000
0000
0000
0000
0000
0010
0100
0000
1000
0001
,
0000
0000
0000
0000
0010
0000
1100
0000
0000
0000
0000
0001
0000
1100
0000
0010
0000
0000
0000
0000
0001
0000
1100
0000
0000
0000
0010
0000
0000
0000
0100
1000
,
0001
0000
0000
0000
0100
0010
0000
0000
0000
0000
0000
1001
0000
0000
0010
0000
0000
0000
0100
0000
0001
0000
0000
1000
0010
0000
0100
0000
0000
0001
0000
0000
,
0000
1000
0000
0000
0110
0000
0000
0001
0000
0000
1000
0010
0000
0100
0000
0000
0000
0001
1000
0000
0000
0000
0010
0100
0000
0000
0000
1001
0000
0000
0000
0000
,
0010
0100
0000
0000
0000
0001
0000
0000
1000
0000
0000
0010
0000
0100
0000
0000
0000
1001
0000
0000
0000
0000
0010
0100
1001
0000
0000
0000
0000
0000
0000
0000
,
0010
1100
0000
0000
0001
0000
1000
0000
0100
0000
0010
0000
0000
0000
1001
0000
0000
0100
0000
0000
0010
0000
1000
0000
0001
0000
0000
0000
0000
0010
1000
0000
,
0010
0001
0000
0100
0000
0000
1010
0000
0100
0000
0001
0000
0000
1000
0000
0000
0010
0000
0100
0000
0000
0001
0000
1000
0000
0000
0100
0010
0000
0000
0000
1001
,
0000
0000
0000
0100
0000
0000
0000
0010
1000
0001
0100
0000
0000
0010
0000
0000
1000
0000
0000
0101
0000
0000
0000
0000
0010
1000
0000
0000
0001
0000
0100
0000
,
0000
0010
0000
1000
0000
0000
0100
0001
0000
0000
0010
1000
0000
0000
0101
0000
0000
0000
0010
1000
0000
0001
0000
0000
0100
0010
0000
0000
0000
0000
0000
1000
,
0000
0001
0000
0100
0000
0010
0000
0000
1000
0000
0001
0000
0100
0000
0010
0000
0000
0000
1000
0001
0000
0000
0100
0000
0010
0000
0000
0000
1001
0000
0000
0100
,
0000
0000
0010
0000
0000
0000
1001
0000
0000
0000
0000
0110
0000
0000
0000
0000
1000
0001
0000
0000
0000
0000
0100
0010
0000
0000
0000
0000
1001
0000
0000
0000
,
0000
0100
0010
0000
0000
0000
1000
0001
0000
0000
0000
0100
0000
0010
0000
0000
0000
1000
0000
0001
0000
0100
0000
0000
0010
0000
0000
1000
0001
0000
0000
0000
,
0100
0000
0010
0000
0000
1000
0000
0001
0000
0000
0100
0000
0010
0000
0000
1000
0000
0001
0000
0000
0000
0000
0010
0100
0000
0000
1000
0000
0001
0000
0100
0000
,
0000
0000
0010
1000
0000
0000
0001
0100
0000
0010
0000
0000
0000
1000
0001
0000
0000
0000
0110
0000
0000
0000
1000
0000
0001
0000
0000
0000
0100
0010
0000
0000
,
0000
0000
0001
1000
0000
0000
0100
0000
0000
0000
0000
1000
0001
0000
0000
0000
0100
0000
0010
0000
0000
0000
1000
0000
0001
0000
0000
0100
0000
0010
0000
0000
,
0000
1000
0001
0000
0000
0100
0000
0000
0010
0000
0000
0000
1000
0001
0000
0000
0000
0100
0000
0010
0000
0000
1000
0000
0001
0000
0000
0000
0000
0000
0100
0010
,
0000
0000
0000
0000
0000
0001
0000
0000
0110
0000
0000
0000
0000
0000
0000
0000
0010
0000
0000
0000
0000
0000
0010
0000
0000
0100
0000
0000
0000
0000
0010
0100
,
0000
0000
0000
0000
0000
0010
0000
0000
0000
0000
0000
0010
0000
0000
0000
0000
0000
0000
0010
0000
0000
0100
0000
0000
0000
0000
0000
0000
1000
0000
0000
0000
,
0000
0000
0200
0000
0000
0000
0020
0000
0000
0000
0000
0000
0000
0000
0000
0000
0000
0300
0000
0000
0000
0000
0000
0000
0000
0000
0000
0000
0000
0000
0000
0000
,
0000
0000
0000
0000
0000
0000
0000
0000
0000
0000
0000
0000
0000
0000
0000
0000
0000
0000
0000
0000
0000
0000
0000
0000
0000
0000
1000
0000
0000
0030
0000
0001
,
0000
0000
0000
0000
0000
1000
0000
0000
0000
0000
0000
0000
0020
0000
0000
0000
0000
0000
0000
0000
0100
0000
0000
0000
0000
0000
0000
0000
0000
0002
0030
0000
,
0000
0000
0000
0000
0000
0000
0000
1200
0000
0000
0000
0000
0000
0000
0000
0000
0000
0000
0000
0000
0000
0000
0000
0000
0000
0003
0000
0000
0000
0000
0000
1301
,
0000
0000
0000
0000
0000
1000
0000
0000
0001
0000
0000
0000
0000
0000
1000
0000
0000
0000
0001
0000
0000
0000
0000
0000
0000
0000
0000
0001
0000
0000
0000
0000
,
0000
1000
0000
0000
0000
0001
0000
0000
0000
1000
0000
0000
0000
0000
0000
0001
0000
0000
0000
0000
0000
1000
0000
0000
0000
0000
0001
0000
0000
0000
1000
0000
,
0000
0000
0000
0000
0001
0000
0000
0000
0000
1000
0000
0000
0000
0000
0001
0000
1000
0000
0000
0000
0000
0000
0000
0001
1000
0000
0000
0000
0000
0000
0002
0000
,
2000
0000
0000
0000
0000
0000
0000
0000
0000
0000
0000
0000
0000
0000
0000
0000
0000
0000
0000
0000
0000
0000
0000
0000
0000
0200
0000
0003
3000
0000
0010
0000
,
0000
0000
0000
0000
0000
0000
0000
0000
0002
0000
0000
0000
0000
0000
0000
0000
0000
0000
1000
0000
0000
0300
0000
0000
0000
0010
0003
0000
0000
0000
0100
0000
,
0000
0000
0001
0000
0000
0000
0000
0000
1000
0000
0000
0000
0010
0000
0100
0000
0000
0000
0000
0000
0001
0000
0000
1000
0000
0000
0000
0000
0100
0010
0000
0000
,
0000
0000
1000
0001
0000
0000
0000
0010
0000
0000
0100
0000
0000
1000
0000
0010
0000
0000
0000
1000
0000
0000
0010
0000
0000
0000
0000
0000
0000
0010
1000
0000
,
0000
0000
0000
0000
0010
1000
0000
0000
0000
0000
0000
0000
0000
0100
0000
0000
0000
0000
0000
0000
0010
0000
0100
0000
0000
0010
0000
0000
0000
0100
0000
0000
,
0000
0010
0100
0000
0000
0000
0000
0000
0000
0010
0000
0000
0000
0000
0000
0010
0000
0000
0000
0000
0000
0100
0000
0000
0000
0000
0000
0100
0000
0000
0000
0000
,
0000
0000
0101
0000
0000
0000
0000
0000
0100
0000
0000
0000
0000
0000
0001
0000
0000
0000
0000
0001
0100
0000
0000
0000
0000
0000
0110
0000
1000
0000
0000
0000
,
0010
0000
1000
0000
0000
0000
0000
0000
1000
0010
0000
0000
0000
0000
0000
0000
0000
1010
0000
0100
0000
0000
0000
0000
1000
0001
0000
0000
0000
0100
0000
0000
,
1000
0000
0001
0010
0000
0200
0010
0000
1001
0000
0000
0000
0000
0010
0000
0000
1000
0000
0001
0000
0000
0000
0010
1000
0000
0300
0000
0001
0000
0000
0100
0000
,
0010
1000
0000
0000
0000
0000
0000
1101
0000
0000
0000
0010
0000
0000
0000
0001
1100
0000
0000
0000
0001
1100
0000
0000
0011
0000
0000
0000
0100
0011
1000
0000
,
0001
0010
1000
0000
0000
0010
1100
0000
0000
0010
2000
0101
0000
0000
0001
0010
0000
0000
0010
0001
0000
0000
0010
0100
0000
0000
0000
0011
3000
0000
0000
1100
,
0000
0000
0000
0010
0001
0000
0000
0000
0011
0000
0000
0000
1100
0011
0000
0000
0000
1010
0101
0000
0000
0011
0000
0000
0000
1000
0110
0001
0000
0000
1000
0110
,
0000
0000
0011
0000
0000
0000
0000
0001
0100
1000
0000
0011
0000
0000
0000
0000
0000
0100
0000
0000
0000
0011
0000
0000
0000
0000
0000
1100
0000
0000
0000
0001
,
0000
0000
0000
0000
0100
0000
0000
0000
0000
0000
0001
0000
0000
1000
0100
0000
0000
0000
0000
0000
0000
0000
1000
0101
0000
0000
0000
0000
0000
0010
0000
1100
,
0000
0000
0000
0000
0000
0000
0010
0001
0000
1100
0000
0000
0000
0000
0000
0000
0010
0000
1100
0000
0001
0000
0000
0000
0000
0000
0110
1000
0000
0000
0000
0001
,
0000
0000
0000
0000
1110
0000
0000
0000
0000
0001
0000
0000
0000
0010
0000
0000
1100
0000
0000
0000
0000
0000
0000
0000
0000
0000
0000
0000
0000
0000
0000
0000
,
0000
0000
0000
0000
,
1111
1111
1111
1111
1111
1111
1111
1111
1111
1111
1111
1111
1111
1111
1111
1111
1111
1111
1111
1111
1111
1111
1111
1111
1111
1111
1111
1111
1111
1111
1111
1111
1111
1111
1111
1111
1111
1111
1111
1111
1111
1111
1111
1111
1111
1111
1111
1111
1111
1111
1111
1111
1111
1111
1111
1111
1111
1111
1111
1111
1111
1111
1111
1111
,
1111
1111
1111
1111
1111
1111
1111
1111
1111
1111
1111
1111
1111
1111
1111
1111
1111
1111
1111
1111
1111
1111
1111
1111
1111
1111
1111
1111
1111
1111
1111
1111
1111
1111
1111
1111
1111
1111
1111
1111
1111
1111
1111
1111
1111
1111
1111
1111
1111
1111
1111
1111
1111
1111
1111
1111
1111
1111
1111
1111
1111
1111
1111
1111
,
1111
1111
1111
1111
1111
1111
1111
1111
1111
1111
1111
1111
1111
1111
1111
1111
1111
1111
1111
1111
1111
1111
1111
1111
1111
1111
1111
1111
1111
1111
1111
1111
1111
1111
1111
1111
1111
1111
1111
1111
1111
1111
1111
1111
1111
1111
1111
1111
1111
1111
1111
1111
1111
1111
1111
1111
1111
1111
1111
1111
1111
1111
1111
1111
,
1111
1111
1111
1111
1111
1111
1111
1111
1111
1111
1111
1111
1111
1111
1111
1111
1111
1111
1111
1111
1111
1111
1111
1111
1111
1111
1111
1111
1111
1111
1111
1111
1111
1111
1111
1111
1111
1111
1111
1111
1111
1111
1111
1111
1111
1111
1111
1111
1111
1111
1111
1111
1111
1111
1111
1111
1111
1111
1111
1111
1111
1111
1111
1111
,
1111
1111
1111
1111
1111
1111
1111
1111
1111
1111
1111
1111
1111
1111
1111
1111
1111
1111
1111
1111
1111
1111
1111
1111
1111
1111
1111
1111
1111
1111
1111
1111
1111
1111
1111
1111
1111
1111
1111
1111
1111
1111
1111
1111
1111
1111
1111
1111
1111
1111
1111
1111
1111
1111
1111
1111
1111
1111
1111
1111
1111
1111
1111
1111
,
1111
1111
1111
1111
1111
1111
1111
1111
1111
1111
1111
1111
1111
1111
1111
1111
1111
1111
1111
1111
1111
1111
1111
1111
1111
1111
1111
1111
1111
1111
1111
1111
1111
1111
1111
1111
1111
1111
1111
1111
1111
1111
1111
1111
1111
1111
1111
1111
1111
1111
1111
1111
1111
1111
1111
1111
1111
1111
1111
1111
1111
1111
1111
1111
,
1111
1111
1111
1111
1111
1111
1111
1111
1111
1111
1111
1111
1111
1111
1111
1111
1111
1111
1111
1111
1111
1111
1111
1111
1111
1111
1111
1111
1111
1111
1111
1111
1111
1111
1111
1111
1111
1111
1111
1111
1111
1111
1111
1111
1111
1111
1111
1111
1111
1111
1111
1111
1111
1111
1111
1111
1111
1111
1111
1111
1111
1111
1111
1111
,
1111
1111
1111
1111
1111
1111
1111
1111
1111
1111
1111
1111
1111
1111
1111
1111
1111
1111
1111
1111
1111
1111
1111
1111
1111
1111
1111
1111
1111
1111
1111
1111
1111
1111
1111
1111
1111
1111
1111
1111
1111
1111
1111
1111
1111
1111
1111
1111
1111
1111
1111
1111
1111
1111
1111
1111
1111
1111
1111
1111
1111
1111
1111
1111
,
1111
1111
1111
1111
1111
1111
1111
1111
1111
1111
1111
1111
1111
1111
1111
1111
1111
1111
1111
1111
1111
1111
1111
1111
1111
1111
1111
1111
1111
1111
1111
1111
1111
1111
1111
1111
1111
1111
1111
1111
1111
1111
1111
1111
1111
1111
1111
1111
1111
1111
1111
1111
1111
1111
1111
1111
1111
1111
1111
1111
1111
1111
1111
1111
,
1111
1111
1111
1111
1111
1111
1111
1111
1111
1111
1111
1111
1111
1111
1111
1111
1111
1111
1111
1111
1111
1111
1111
1111
1111
1111
1111
1111
1111
1111
1111
1111
1111
1111
1111
1111
1111
1111
1111
1111
1111
1111
1111
1111
1111
1111
1111
1111
1111
1111
1111
1111
1111
1111
1111
1111
1111
1111
1111
1111
1111
1111
1111
1111
,
1111
1111
1111
1111
1111
1111
1111
1111
1111
1111
1111
1111
1111
1111
1111
1111
1111
1111
1111
1111
1111
1111
1111
1111
1111
1111
1111
1111
1111
1111
1111
1111
1111
1111
1111
1111
1111
1111
1111
1111
1111
1111
1111
1111
1111
1111
1111
1111
1111
1111
1111
1111
1111
1111
1111
1111
1111
1111
1111
1111
1111
1111
1111
1111
,
1111
1111
1111
1111
1111
1111
1111
1111
1111
1111
1111
1111
1111
1111
1111
1111
1111
1111
1111
1111
1111
1111
1111
1111
1111
1111
1111
1111
1111
1111
1111
1111
1111
1111
1111
1111
1111
1111
1111
1111
1111
1111
1111
1111
1111
1111
1111
1111
1111
1111
1111
1111
1111
1111
1111
1111
1111
1111
1111
1111
1111
1111
1111
1111
,
1111
1111
1111
1111
1111
1111
1111
1111
1111
1111
1111
1111
1111
1111
1111
1111
1111
1111
1111
1111
1111
1111
1111
1111
1111
1111
1111
1111
1111
1111
1111
1111
1111
1111
1111
1111
1111
1111
1111
1111
1111
1111
1111
1111
1111
1111
1111
1111
1111
1111
1111
1111
1111
1111
1111
1111
1111
1111
1111
1111
1111
1111
1111
1111
,
1111
1111
1111
1111
1111
1111
1111
1111
1111
1111
1111
1111
1111
1111
1111
1111
1111
1111
1111
1111
1111
1111
1111
1111
1111
1111
1111
1111
1111
1111
1111
1111
1111
1111
1111
1111
1111
1111
1111
1111
1111
1111
1111
1111
1111
1111
1111
1111
1111
1111
1111
1111
1111
1111
1111
1111
1111
1111
1111
1111
1111
1111
1111
1111
,
1111
1111
1111
1111
1111
1111
1111
1111
1111
1111
1111
1111
1111
1111
1111
1111
1111
1111
1111
1111
1111
1111
1111
1111
1111
1111
1111
1111
1111
1111
1111
1111
1111
1111
1111
1111
1111
1111
1111
1111
1111
1111
1111
1111
1111
1111
1111
1111
1111
1111
1111
1111
1111
1111
1111
1111
1111
1111
1111
1111
1111
1111
1111
1111
,
1111
1111
1111
1111
1111
1111
1111
1111
1111
1111
1111
1111
1111
1111
1111
1111
1111
1111
1111
1111
1111
1111
1111
1111
1111
1111
1111
1111
1111
1111
1111
1111
1111
1111
1111
1111
1111
1111
1111
1111
1111
1111
1111
1111
1111
1111
1111
1111
1111
1111
1111
1111
1111
1111
1111
1111
1111
1111
1111
1111
1111
1111
1111
1111
,
1111
1111
1111
1111
1111
1111
1111
1111
1111
1111
1111
1111
1111
1111
1111
1111
1111
1111
1111
1111
1111
1111
1111
1111
1111
1111
1111
1111
1111
1111
1111
1111
1111
1111
1111
1111
1111
1111
1111
1111
1111
1111
1111
1111
1111
1111
1111
1111
2000
0000
0000
0000
0000
0000
0000
0000
0000
0000
0000
0000
0000
0000
0000
0000
,
0000
0000
0000
0200
,
0000
0000
0000
0000
,
0000
0000
0000
0000
,
0000
0000
0000
0000
0000
0000
0000
0000
0000
0002
0000
0000
0000
0000
0000
0000
,
0000
0000
0000
0000
,
0000
0000
0000
0000
,
0000
0000
0000
0000
,
0000
0000
0000
0000
,
0000
0000
0000
0000
,
0000
0000
0000
0000
,
0000
0000
0000
0000
,
0000
0000
0000
0000
,
0000
0000
0000
0000
,
0000
0000
0000
0000
,
0000
0000
0000
0000
,
0000
0000
0000
0000
,
0000
0000
0000
0000
,
0000
0000
0000
0000
,
0000
0000
0000
0000
,
0000
0000
0000
0000
,
0000
0000
0000
0000
,
0000
0000
0000
0000
,
0000
0000
0000
0000
,
0000
0000
0000
0000
,
0000
0000
0000
0000
,
0000
0000
0000
0000
,
0000
0000
0000
0000
,
0000
0000
0000
0000
,
0000
0000
0000
0000
,
0000
0000
0000
0000
,
0000
0000
0000
0000
,
0000
0000
0000
0000
,
0000
0000
0000
0000
,
0000
0000
0000
0000
,
0000
0000
0000
0000
,
0000
0000
0000
0000
,
0000
0000
0000
0000
,
0000
0000
0000
0000
,
0000
0000
0000
0000
,
0000
0000
0000
0000
,
0000
0000
0000
0000
,
0000
0000
0000
0000
,
0000
0000
0000
0000
,
0000
0000
0000
0000
,
0000
0000
0000
0000
,
0000
0000
0000
0000
,
0000
0000
0000
0000
,
0000
0000
0000
0000
,
0000
0000
0000
0000
,
0000
0000
0000
0000
,
0000
0000
0000
0000
,
0000
0000
0000
0000
,
0000
0000
0000
0000
,
0000
0000
0000
0000
,
0000
0000
0000
0000
,
0000
0000
0000
0000
,
0000
0000
0000
0000
,
0000
0000
0000
0000
,
0000
0000
0000
0000
,
0000
0000
0000
0000
,
0000
0000
0000
0000
,
0000
0000
0000
0000
,
0000
0000
0000
0000
,
0000
0000
0000
0000
,
0000
0000
0000
0000
,
0000
0000
0000
0000
,
0000
0000
0000
0000
,
0000
0000
0000
0000
,
0000
0000
0000
0000
,
0000
0000
0000
0000
,
0000
0000
0000
0000
,
0000
0000
0000
0000
,
0000
0000
0000
0000
,
0000
0000
0000
0000
,
0000
0000
0000
0000
,
0000
0000
0000
0000
,
0000
0000
0000
0000
0000
3303
0000
0000
;

//---------------dance-single - ----------------
#NOTES:
     dance-single:
     :
     Easy:
     1:
     0.000,0.000,0.000,0.000,0.000,0.000,0.000,0.000,0.000,0.000:
0000
0000
0000
0000
;
